Ayo Beriklan Di Indofiles Ayo Beriklan Di Indofiles Ayo Beriklan Di Indofiles

TaruhSini.com, cara mudah berbagi files anda IndoLocker.com - We here to Share
Join Indofiles VIP Indofiles.net Poster Hunt

Results 1 to 5 of 5

Thread: Mirror Mirror (2012)

  1. #1


    Join Date
    Apr 2012
    Posts
    8
    Thanks
    0
    Thanked 2 Times in 1 Post

    Indolocker Mirror Mirror (2012)


    Mirror Mirror 2012 TS - ADTRG 1 link


    Mirror.Mirror.2012.TS.XViD.AC3-ADTRG
    Size: 2 CD (1.37 GB)
    Quality: 720×280, 1,795 kbps, AC3 192 kbps
    Runtime: 98 mins
    Genre: Adventure | Comedy | Drama
    IMDB rating: 5.7/10
    Directed by: Tarsem Singh
    Starring: Lily Collins, Julia Roberts and Armie Hammer



    Plot: One of the most beloved stories of all time is coming to life in the motion picture event for the whole family, Mirror Mirror. A fresh and funny retelling of the Snow White legend, Mirror Mirror features breakout star Lily Collins as Snow White, a princess in exile, and Julia Roberts as the evil Queen who ruthlessly rules her captured kingdom. Seven courageous rebel dwarfs join forces with Snow White as she fights to reclaim her birthright and win her Prince in this magical comedy filled with jealousy, romance, and betrayal that will capture the hearts and imaginations of audiences the world over. The film also stars Armie Hammer as the Prince, and Nathan Lane as the hapless and bungling servant to the Queen.

    Complete name : Mirror.Mirror.2012.TS.XViD.AC3-ADTRG.avi

    Format : AVI
    Format/Info : Audio Video Interleave
    File size : 1.37 GiB
    Duration : 1h 38mn
    Overall bit rate : 1 992 Kbps
    Writing library : VirtualDub build

    34703/release

    Video
    ID : 0
    Format : MPEG-4 Visual
    Codec ID : XVID
    Duration : 1h 38mn
    Bit rate : 1 795 Kbps
    Width : 720 pixels
    Height : 280 pixels
    Display aspect ratio : 2.571
    Frame rate : 25.000 fps
    Stream size : 1.23 GiB (90%)

    Audio
    ID : 1
    Format : AC-3
    Bit rate : 192 Kbps
    Channel(s) : 2 channels
    Channel positions : Front: L R
    Sampling rate : 48.0 KHz
    Stream size : 131 MiB (9%)








    1 link download :

    Code:
    http://rapidgator.net/file/2279069/A-MM.TS.rar.html
    
    http://letitbit.net/download/27523.2e06c83daa1b4c13c575157d6efa/A-MM.TS.rar.html
    
    http://bitshare.com/files/crh0ei61/A-MM.TS.rar.html
    
    http://ul.to/uabc2g0m/A-MM.TS.rar
    Backup 1 link :

    Code:
    http://letitbit.net/download/99610.9867e32a07f40ad35222610665ae/A-MM.TS-BK.rar.html
    Backup 300MB :

    Code:
    http://rapidgator.net/file/2278631/A-MM.TS-BK300.part1.rar.html
    http://rapidgator.net/file/2278630/A-MM.TS-BK300.part2.rar.html
    http://rapidgator.net/file/2278710/A-MM.TS-BK300.part3.rar.html
    http://rapidgator.net/file/2278719/A-MM.TS-BK300.part4.rar.html
    http://rapidgator.net/file/2278735/A-MM.TS-BK300.part5.rar.html
    http://rapidgator.net/file/2278638/A-MM.TS-BK300.part6.rar.html
    
    http://letitbit.net/download/05726.0897b13f2f924749272014676175/A-MM.TS-BK300.part1.rar.html
    http://letitbit.net/download/12016.1d5384c941748d5cab3f90b88450/A-MM.TS-BK300.part2.rar.html
    http://letitbit.net/download/69619.639eb5e9425d22912853247e230d/A-MM.TS-BK300.part3.rar.html
    http://letitbit.net/download/52298.5281163b605d2e922cbb0b8425ed/A-MM.TS-BK300.part4.rar.html
    http://letitbit.net/download/90806.9d295d2badc428b77008f7845dc8/A-MM.TS-BK300.part5.rar.html
    http://letitbit.net/download/44887.439414fae4b5d657a3f82822a89a/A-MM.TS-BK300.part6.rar.html
    
    http://bitshare.com/files/29roybjy/A-MM.TS-BK300.part1.rar.html
    http://bitshare.com/files/h4kmuvmo/A-MM.TS-BK300.part2.rar.html
    http://bitshare.com/files/ue6dehju/A-MM.TS-BK300.part3.rar.html
    http://bitshare.com/files/06l07qmf/A-MM.TS-BK300.part4.rar.html
    http://bitshare.com/files/aggh9gt5/A-MM.TS-BK300.part5.rar.html
    http://bitshare.com/files/566v5lp0/A-MM.TS-BK300.part6.rar.html
    
    http://ul.to/kea27nh8/A-MM.TS-BK300.part1.rar
    http://ul.to/apq9i228/A-MM.TS-BK300.part2.rar
    http://ul.to/l18vhqdy/A-MM.TS-BK300.part3.rar
    http://ul.to/7dvyq8r9/A-MM.TS-BK300.part4.rar
    http://ul.to/ttlmwdbq/A-MM.TS-BK300.part5.rar
    http://ul.to/5he9pseb/A-MM.TS-BK300.part6.rar

  2. # ADS
    Circuit advertisement
    Join Date
    Always
    Posts
    Many

     

    Ayo Beriklan Di Indofiles Ayo Beriklan Di Indofiles

    Join Indofiles Sub Crew TaruhSini.com,cara mudah berbagi files anda
    Join Indofiles VIP Indofiles.net Poster Hunt

     

  3. #2

    Black_Hat's Avatar
    Join Date
    Jun 2011
    Posts
    637
    Thanks
    686
    Thanked 223 Times in 122 Posts

    Default

    ni film tentang putri salju ya???
    judulnya mengingatkan ku...

  4. #3

    dion thok's Avatar
    Join Date
    Jun 2010
    Posts
    54
    Thanks
    41
    Thanked 16 Times in 10 Posts

    Default

    coba download y gan....makasih............

  5. #4

    Abbam's Avatar
    Join Date
    Nov 2011
    Posts
    39
    Thanks
    303
    Thanked 4 Times in 3 Posts

    Default

    mantabs gan ... nunggu yg bagusan ah

  6. #5


    Join Date
    Jun 2011
    Posts
    21
    Thanks
    97
    Thanked 1 Time in 1 Post

    Default

    tumben gak ada yg ngelokalin versi bluraynya..biasanya om bepe atau om tonigun rajin ngelokalin..

Similar Threads

  1. mirror
    By angel in forum Warung Kopi
    Replies: 0
    Last Post: 05-01-2012, 17:27 PM
  2. Mirror's Edge
    By danu in forum PC/Mac Games
    Replies: 7
    Last Post: 30-06-2011, 13:47 PM

Posting Permissions

  • You may not post new threads
  • You may not post replies
  • You may not post attachments
  • You may not edit your posts
  •