Dirgahayu RI ke-70
Join Indofiles VIP IndoLocker.com - We here to Share

User Tag List

Results 1 to 1 of 1

Thread: FA CUP FINAL 2006 Liverpool Vs West Ham

  1. #1

    drew1's Avatar
    Join Date
    Nov 2011
    Posts
    220
    Thanks
    96
    Thanked 538 Times in 140 Posts
    Mentioned
    0 Post(s)
    Tagged
    0 Thread(s)

    Default FA CUP FINAL 2006 Liverpool Vs West Ham



    FA CUP FINAL 13-06-2006 Liverpool Vs West Ham

    Media Info
    Code:
    General
    Format                                   : Matroska
    Format version                           : Version 2
    File size                                : 3.40 GiB
    Duration                                 : 1h 46mn
    Overall bit rate                         : 4 566 Kbps
    Encoded date                             : UTC 2012-05-05 18:27:26
    Writing application                      : mkvmerge v4.3.0 ('Escape from the Island') built on Sep  5 2010 10:30:51
    Writing library                          : libebml v1.0.0 + libmatroska v1.0.0
    
    Video
    ID                                       : 1
    Format                                   : AVC
    Format/Info                              : Advanced Video Codec
    Format profile                           : High@L4.1
    Format settings, CABAC                   : Yes
    Format settings, ReFrames                : 5 frames
    Muxing mode                              : Header stripping
    Codec ID                                 : V_MPEG4/ISO/AVC
    Duration                                 : 1h 46mn
    Bit rate                                 : 4 283 Kbps
    Width                                    : 1 280 pixels
    Height                                   : 720 pixels
    Display aspect ratio                     : 16:9
    Frame rate                               : 25.000 fps
    Color space                              : YUV
    Chroma subsampling                       : 4:2:0
    Bit depth                                : 8 bits
    Scan type                                : Progressive
    Bits/(Pixel*Frame)                       : 0.186
    Stream size                              : 3.19 GiB (94%)
    Writing library                          : x264 core 122 r2184 5c85e0a
    Encoding settings                        : cabac=1 / ref=5 / deblock=1:-1:-1 / analyse=0x3:0x113 / me=umh / subme=8 / psy=1 / psy_rd=1.00:0.15 / mixed_ref=1 / me_range=16 / chroma_me=1 / trellis=1 / 8x8dct=1 / cqm=0 / deadzone=21,11 / fast_pskip=1 / chroma_qp_offset=-3 / threads=18 / sliced_threads=0 / nr=0 / decimate=1 / interlaced=0 / bluray_compat=0 / constrained_intra=0 / bframes=3 / b_pyramid=2 / b_adapt=2 / b_bias=0 / direct=3 / weightb=1 / open_gop=0 / weightp=2 / keyint=250 / keyint_min=25 / scenecut=40 / intra_refresh=0 / rc_lookahead=50 / rc=crf / mbtree=1 / crf=23.0 / qcomp=0.60 / qpmin=0 / qpmax=69 / qpstep=4 / ip_ratio=1.40 / aq=1:1.00
    Default                                  : Yes
    Forced                                   : No
    
    Audio
    ID                                       : 2
    Format                                   : MPEG Audio
    Format version                           : Version 1
    Format profile                           : Layer 2
    Muxing mode                              : Header stripping
    Codec ID                                 : A_MPEG/L2
    Codec ID/Hint                            : MP2
    Duration                                 : 1h 46mn
    Bit rate mode                            : Constant
    Bit rate                                 : 192 Kbps
    Channel(s)                               : 2 channels
    Sampling rate                            : 48.0 KHz
    Compression mode                         : Lossy
    Delay relative to video                  : 144ms
    Stream size                              : 146 MiB (4%)
    Title                                    : English
    Language                                 : English
    Default                                  : Yes
    Forced                                   : No
    IDWS Link
    **Hidden Content: Klik Thanks untuk Melihat**

  2. The Following User Says Thank You to drew1 For This Useful Post:


  3. # ADS
    Circuit advertisement
    Join Date
    Always
    Posts
    Many
     

Similar Threads

  1. [Full Match] UEFA Champions League Final 2007 AC Milan VS Liverpool
    By drew1 in forum Sport Video
    Replies: 4
    Last Post: 05-06-2015, 23:48 PM
  2. [Full Match] English Premier League: Liverpool vs West Ham United (07/04/2013)
    By wedus.galau in forum Sport Video
    Replies: 0
    Last Post: 08-04-2013, 20:00 PM
  3. [Full Match] English Premier League: West Ham vs Liverpool (09/12/2012)
    By wedus.galau in forum Sport Video
    Replies: 0
    Last Post: 10-12-2012, 07:07 AM

Posting Permissions

  • You may not post new threads
  • You may not post replies
  • You may not post attachments
  • You may not edit your posts
  •